<?xml version="1.0" standalone="no"?>
<!DOCTYPE svg PUBLIC "-//W3C//DTD SVG 1.1//EN" "http://www.w3.org/Graphics/SVG/1.1/DTD/svg11.dtd" >
<svg xmlns="http://www.w3.org/2000/svg">
<metadata>Generated by IcoMoon</metadata>
<defs>
<font id="usin" horiz-adv-x="1024">
<font-face units-per-em="1024" ascent="960" descent="-64" />
<missing-glyph horiz-adv-x="1024" />
<glyph unicode="&#x20;" horiz-adv-x="512" d="" />
<glyph unicode="&#xe0b7;" glyph-name="bbpress" d="M768 596.667v86h-512v-86h512zM598 340.667v86h-342v-86h342zM256 554.667v-86h512v86h-512zM854 852.667c46 0 84-38 84-84v-512c0-46-38-86-84-86h-598l-170-170v768c0 46 38 84 84 84h684z" />
<glyph unicode="&#xe0ba;" glyph-name="pbpro" d="M726 212.667v64c0 72-142 108-214 108s-214-36-214-108v-64h428zM512 650.667c-52 0-96-44-96-96s44-96 96-96 96 44 96 96-44 96-96 96zM854 768.667c46 0 84-40 84-86v-512c0-46-38-86-84-86h-684c-46 0-84 40-84 86v512c0 46 38 86 84 86h684zM170-85.333v86h684v-86h-684zM854 938.667v-86h-684v86h684z" />
<glyph unicode="&#xe145;" glyph-name="add" d="M810 384.667h-256v-256h-84v256h-256v84h256v256h84v-256h256v-84z" />
<glyph unicode="&#xe152;" glyph-name="filter" d="M256 384.667v84h512v-84h-512zM128 682.667h768v-86h-768v86zM426 170.667v86h172v-86h-172z" />
<glyph unicode="&#xe1db;" glyph-name="field2" d="M170 468.667v-84h86v84h-86zM86 340.667v172h852v-172h-852zM256 640.667v84h-86v-84h86zM86 768.667h852v-172h-852v172zM170 212.667v-84h86v84h-86zM86 84.667v172h852v-172h-852z" />
<glyph unicode="&#xe5ca;" glyph-name="check" d="M384 248.667l452 452 60-60-512-512-238 238 60 60z" />
<glyph unicode="&#xe5d3;" glyph-name="more" d="M512 512.667c46 0 86-40 86-86s-40-86-86-86-86 40-86 86 40 86 86 86zM768 512.667c46 0 86-40 86-86s-40-86-86-86-86 40-86 86 40 86 86 86zM256 512.667c46 0 86-40 86-86s-40-86-86-86-86 40-86 86 40 86 86 86z" />
<glyph unicode="&#xe601;" glyph-name="loading" d="M512 682.667v-128l170.667 170.667-170.667 170.667v-128c-188.587 0-341.333-152.747-341.333-341.333 0-66.987 19.627-129.067 52.907-181.76l62.293 62.293c-18.987 35.627-29.867 76.16-29.867 119.467 0 141.44 114.56 256 256 256zM800.427 608.427l-62.293-62.293c18.987-35.627 29.867-76.16 29.867-119.467 0-141.44-114.56-256-256-256v128l-170.667-170.667 170.667-170.667v128c188.587 0 341.333 152.747 341.333 341.333 0 66.987-19.627 129.067-52.907 181.76z" />
<glyph unicode="&#xe602;" glyph-name="apply" d="M384 248.747l-177.92 177.92-60.373-60.373 238.293-238.293 512 512-60.373 60.373z" />
<glyph unicode="&#xe603;" glyph-name="close" d="M810.667 664.96l-60.373 60.373-238.293-238.293-238.293 238.293-60.373-60.373 238.293-238.293-238.293-238.293 60.373-60.373 238.293 238.293 238.293-238.293 60.373 60.373-238.293 238.293z" />
<glyph unicode="&#xe604;" glyph-name="visible" d="M512 746.667c-213.333 0-395.52-132.693-469.333-320 73.813-187.307 256-320 469.333-320 213.547 0 395.52 132.693 469.333 320-73.813 187.307-255.787 320-469.333 320zM512 213.334c-117.76 0-213.333 95.573-213.333 213.333s95.573 213.333 213.333 213.333 213.333-95.573 213.333-213.333-95.573-213.333-213.333-213.333zM512 554.667c-70.613 0-128-57.387-128-128s57.387-128 128-128 128 57.387 128 128-57.387 128-128 128z" />
<glyph unicode="&#xe605;" glyph-name="people" d="M682.667 469.334c70.613 0 127.573 57.387 127.573 128s-56.96 128-127.573 128c-70.613 0-128-57.387-128-128s57.387-128 128-128zM341.333 469.334c70.613 0 127.573 57.387 127.573 128s-56.96 128-127.573 128c-70.613 0-128-57.387-128-128s57.387-128 128-128zM341.333 384c-99.627 0-298.667-49.92-298.667-149.333v-106.667h597.333v106.667c0 99.413-199.040 149.333-298.667 149.333zM682.667 384c-12.373 0-26.24-0.853-41.173-2.347 49.493-35.627 83.84-83.627 83.84-146.987v-106.667h256v106.667c0 99.413-199.040 149.333-298.667 149.333z" />
<glyph unicode="&#xe606;" glyph-name="export" d="M810.667 768h-597.333c-47.147 0-85.333-38.187-85.333-85.333v-512c0-47.147 38.187-85.333 85.333-85.333h170.667v85.333h-170.667v426.667h597.333v-426.667h-170.667v-85.333h170.667c47.147 0 85.333 38.187 85.333 85.333v512c0 47.147-38.187 85.333-85.333 85.333zM512 512l-170.667-170.667h128v-256h85.333v256h128l-170.667 170.667z" />
<glyph unicode="&#xe608;" glyph-name="arrow-drop-down" d="M298.667 512l213.333-213.333 213.333 213.333z" />
<glyph unicode="&#xe609;" glyph-name="arrow-drop-up" d="M298.667 341.334l213.333 213.333 213.333-213.333z" />
<glyph unicode="&#xe60a;" glyph-name="arrow-left" d="M657.707 622.294l-60.373 60.373-256-256 256-256 60.373 60.373-195.627 195.627z" />
<glyph unicode="&#xe60b;" glyph-name="arrow-right" d="M426.667 682.667l-60.373-60.373 195.627-195.627-195.627-195.627 60.373-60.373 256 256z" />
<glyph unicode="&#xe60c;" glyph-name="map" d="M512 853.334c-235.733 0-426.667-190.933-426.667-426.667s190.933-426.667 426.667-426.667 426.667 190.933 426.667 426.667-190.933 426.667-426.667 426.667zM469.333 88.32c-168.32 20.907-298.667 164.267-298.667 338.347 0 26.24 3.2 51.84 8.96 76.373l204.373-204.373v-42.667c0-47.147 38.187-85.333 85.333-85.333v-82.347zM763.52 196.48c-10.88 34.56-42.88 59.52-80.853 59.52h-42.667v128c0 23.467-19.2 42.667-42.667 42.667h-256v85.333h85.333c23.467 0 42.667 19.2 42.667 42.667v85.333h85.333c47.147 0 85.333 38.187 85.333 85.333v17.707c125.013-50.56 213.333-173.013 213.333-316.373 0-88.747-34.133-169.387-89.813-230.187z" />
<glyph unicode="&#xe6c4;" glyph-name="segment" d="M556 382.667h382c-20-202-180-362-382-382v382zM556 852.667c202-20 362-180 382-382h-382v382zM470 852.667v-852c-216 22-384 204-384 426s168 404 384 426z" />
<glyph unicode="&#xe7f0;" glyph-name="group-add" d="M554 384.667c86 0 256-42 256-128v-86h-512v86c0 86 170 128 256 128zM838 376.667c86-14 186-54 186-120v-86h-128v86c0 50-22 88-58 120zM554 468.667c-70 0-128 58-128 128s58 128 128 128 128-58 128-128-58-128-128-128zM768 468.667c-14 0-26 2-38 6 24 34 38 76 38 122s-14 88-38 122c12 4 24 6 38 6 70 0 128-58 128-128s-58-128-128-128zM342 512.667v-86h-128v-128h-86v128h-128v86h128v128h86v-128h128z" />
<glyph unicode="&#xe80c;" glyph-name="learndash" d="M512 810.667l470-256v-342h-86v296l-384-210-470 256zM214 376.667l298-164 298 164v-172l-298-162-298 162v172z" />
<glyph unicode="&#xe838;" glyph-name="star" d="M512 202.667l-264-160 70 300-232 202 306 26 120 282 120-282 306-26-232-202 70-300z" />
<glyph unicode="&#xe83a;" glyph-name="star_border" d="M512 280.667l160-96-42 182 142 124-188 16-72 172-72-172-188-16 142-124-42-182zM938 544.667l-232-202 70-300-264 160-264-160 70 300-232 202 306 26 120 282 120-282z" />
<glyph unicode="&#xe851;" glyph-name="pmpro" d="M256 212.667v-42h512v42c0 86-170 132-256 132s-256-46-256-132zM640 554.667c0 70-58 128-128 128s-128-58-128-128 58-128 128-128 128 58 128 128zM128 724.667c0 46 38 86 86 86h596c46 0 86-40 86-86v-596c0-46-40-86-86-86h-596c-48 0-86 40-86 86v596z" />
<glyph unicode="&#xe884;" glyph-name="edd" d="M214 170.667h596v-86h-596v86zM810 554.667l-298-298-298 298h170v256h256v-256h170z" />
<glyph unicode="&#xe88e;" glyph-name="info" d="M554 554.667v86h-84v-86h84zM554 212.667v256h-84v-256h84zM512 852.667c236 0 426-190 426-426s-190-426-426-426-426 190-426 426 190 426 426 426z" />
<glyph unicode="&#xe896;" glyph-name="list" d="M298 640.667h598v-86h-598v86zM298 212.667v86h598v-86h-598zM298 384.667v84h598v-84h-598zM128 554.667v86h86v-86h-86zM128 212.667v86h86v-86h-86zM128 384.667v84h86v-84h-86z" />
<glyph unicode="&#xe899;" glyph-name="privacy" d="M768 84.667v428h-512v-428h512zM380 682.667v-86h264v86c0 72-60 132-132 132s-132-60-132-132zM768 596.667c46 0 86-38 86-84v-428c0-46-40-84-86-84h-512c-46 0-86 38-86 84v428c0 46 40 84 86 84h42v86c0 118 96 214 214 214s214-96 214-214v-86h42zM512 212.667c-46 0-86 40-86 86s40 86 86 86 86-40 86-86-40-86-86-86z" />
<glyph unicode="&#xe8aa;" glyph-name="custom-field" d="M896 126.667v600h-768v-600h768zM896 810.667c46 0 86-40 86-86v-596c0-46-40-86-86-86h-768c-46 0-86 40-86 86v596c0 46 40 86 86 86h768zM810 640.667v-256h-340v256h340z" />
<glyph unicode="&#xe8b8;" glyph-name="settings" d="M512 276.667c82 0 150 68 150 150s-68 150-150 150-150-68-150-150 68-150 150-150zM830 384.667l90-70c8-6 10-18 4-28l-86-148c-6-10-16-12-26-8l-106 42c-22-16-46-32-72-42l-16-112c-2-10-10-18-20-18h-172c-10 0-18 8-20 18l-16 112c-26 10-50 24-72 42l-106-42c-10-4-20-2-26 8l-86 148c-6 10-4 22 4 28l90 70c-2 14-2 28-2 42s0 28 2 42l-90 70c-8 6-10 18-4 28l86 148c6 10 16 12 26 8l106-42c22 16 46 32 72 42l16 112c2 10 10 18 20 18h172c10 0 18-8 20-18l16-112c26-10 50-24 72-42l106 42c10 4 20 2 26-8l86-148c6-10 4-22-4-28l-90-70c2-14 2-28 2-42s0-28-2-42z" />
<glyph unicode="&#xe8d2;" glyph-name="field" d="M170 724.667h684v-84h-684v84zM170 298.667v86h684v-86h-684zM854 554.667v-86h-684v86h684zM598 212.667v-84h-428v84h428z" />
<glyph unicode="&#xe8d5;" glyph-name="sort" d="M384 810.667l170-170h-128v-300h-84v300h-128zM682 212.667h128l-170-170-170 170h128v300h84v-300z" />
<glyph unicode="&#xe8f5;" glyph-name="visible-off" d="M506 554.667h6c70 0 128-58 128-128v-8zM322 520.667c-14-28-24-60-24-94 0-118 96-214 214-214 34 0 66 10 94 24l-66 66c-8-2-18-4-28-4-70 0-128 58-128 128 0 10 2 20 4 28zM86 756.667l54 54 756-756-54-54c-47.968 47.365-96.266 94.401-144 142-58-24-120-36-186-36-214 0-396 132-470 320 34 84 90 156 160 212-39.017 38.983-77.307 78.693-116 118zM512 640.667c-28 0-54-6-78-16l-92 92c52 20 110 30 170 30 214 0 394-132 468-320-32-80-82-148-146-202l-124 124c10 24 16 50 16 78 0 118-96 214-214 214z" />
<glyph unicode="&#xe900;" glyph-name="devices" d="M170.667 682.667h768v85.333h-768c-47.147 0-85.333-38.187-85.333-85.333v-469.333h-85.333v-128h597.333v128h-426.667v469.333zM981.333 597.334h-256c-23.467 0-42.667-19.2-42.667-42.667v-426.667c0-23.467 19.2-42.667 42.667-42.667h256c23.467 0 42.667 19.2 42.667 42.667v426.667c0 23.467-19.2 42.667-42.667 42.667zM938.667 213.334h-170.667v298.667h170.667v-298.667z" />
<glyph unicode="&#xe901;" glyph-name="mode-edit" d="M128 202.667v-160h160l472.107 472.107-160 160-472.107-472.107zM883.413 638.080c16.64 16.64 16.64 43.733 0 60.373l-99.627 99.627c-16.64 16.64-43.733 16.64-60.373 0l-78.080-78.080 160-160 78.080 78.080z" />
<glyph unicode="&#xe902;" glyph-name="key" d="M539.733 512c-35.2 99.413-129.707 170.667-241.067 170.667-141.44 0-256-114.56-256-256s114.56-256 256-256c111.36 0 205.867 71.253 241.067 170.667h185.6v-170.667h170.667v170.667h85.333v170.667h-441.6zM298.667 341.334c-47.147 0-85.333 38.187-85.333 85.333s38.187 85.333 85.333 85.333 85.333-38.187 85.333-85.333-38.187-85.333-85.333-85.333z" />
<glyph unicode="&#xe903;" glyph-name="woocommerce" horiz-adv-x="1171" d="M82.332 746.15v-638.967c0-66.544 53.97-120.517 120.538-120.517h765.493c66.601 0 120.538 53.957 120.538 120.517v638.967c0 66.544-53.97 120.517-120.538 120.517h-765.493c-66.601 0-120.538-53.957-120.538-120.517zM313.468 701.475c31.991 2.511 50.188-12.536 54.574-45.158 19.443-131.093 40.772-242.122 63.346-333.066l137.363 261.555c12.551 23.842 28.235 36.383 47.053 37.638 27.598 1.882 44.527-15.678 51.433-52.685 15.685-83.417 35.755-154.303 59.59-214.518 16.308 159.313 43.913 274.099 82.802 344.981 9.402 17.567 23.205 26.346 41.393 27.605 14.433 1.245 27.598-3.141 39.518-12.551s18.188-21.322 19.443-35.755c0.63-11.292-1.252-20.701-6.268-30.11-24.464-45.165-44.541-121.061-60.849-226.431-15.678-102.242-21.322-181.91-17.567-238.988 1.259-15.671-1.252-29.473-7.52-41.393-7.534-13.795-18.819-21.322-33.248-22.578-16.308-1.252-33.245 6.268-49.551 23.205-58.33 59.593-104.748 148.659-138.621 267.209-40.779-80.282-70.88-140.498-90.329-180.645-37.007-70.88-68.369-107.266-94.715-109.148-16.936-1.252-31.362 13.173-43.906 43.275-31.984 82.172-66.487 240.87-103.487 476.080-2.511 16.308 1.245 30.739 10.033 42.024 8.779 11.92 21.953 18.188 39.518 19.443z" />
<glyph unicode="&#xe904;" glyph-name="woocommerce2" horiz-adv-x="1713" d="M268.434 858.347h1175.844c74.415 0 134.651-60.236 134.651-134.651v-448.833c0-74.415-60.236-134.651-134.651-134.651h-421.674l57.878-141.74-254.546 141.74h-556.917c-74.408 0-134.651 60.236-134.651 134.651v448.833c-0.593 73.822 59.636 134.651 134.060 134.651zM1478.571 643.421c-21.141 36.998-52.264 59.305-93.955 68.118-11.158 2.344-21.727 3.52-31.714 3.52-56.371 0-102.177-29.363-137.993-88.085-30.541-49.908-45.806-105.107-45.806-165.597 0-45.219 9.394-83.972 28.188-116.271 21.141-36.998 52.264-59.305 93.955-68.118 11.152-2.351 21.727-3.523 31.714-3.523 56.957 0 102.763 29.363 137.993 88.085 30.535 50.501 45.806 105.7 45.806 166.183 0.586 45.806-9.394 83.972-28.188 115.68v0zM1404.585 480.759v0.007c2.93 13.506 4.111 28.184 4.111 43.451 0 17.029-3.52 35.23-10.566 53.441-8.801 22.899-20.555 35.23-34.644 38.17-21.141 4.111-41.686-7.629-61.076-36.41-15.85-22.313-25.83-45.806-31.121-69.884-2.93-13.506-4.111-28.188-4.111-42.859 0-17.029 3.52-35.23 10.566-53.441 8.801-22.906 20.555-35.23 34.644-38.17 14.678-2.93 30.535 3.52 47.557 18.787 21.734 19.374 36.41 48.15 44.633 86.906zM1110.968 643.421c-21.141 36.998-52.855 59.305-93.955 68.118-11.152 2.344-21.727 3.52-31.714 3.52-56.371 0-102.177-29.363-137.993-88.085-30.535-49.908-45.806-105.107-45.806-165.597 0-45.219 9.394-83.972 28.188-116.271 21.141-36.998 52.264-59.305 93.955-68.118 11.158-2.351 21.727-3.523 31.714-3.523 56.957 0 102.763 29.363 137.993 88.085 30.541 50.501 45.806 105.7 45.806 166.183 0 45.806-9.394 83.972-28.188 115.68v0zM1036.396 480.759v0.007c2.93 13.506 4.702 28.184 4.111 43.451 0 17.029-3.52 35.23-10.566 53.441-8.801 22.899-20.555 35.23-34.644 38.17-21.141 4.111-41.686-7.629-61.070-36.41-15.857-22.313-25.836-45.806-31.128-69.884-2.93-13.506-4.111-28.188-4.111-42.859 0-17.029 3.52-35.23 10.56-53.441 8.814-22.906 20.556-35.23 34.644-38.17 14.685-2.93 30.541 3.52 47.57 18.787 21.727 19.374 36.41 48.15 44.633 86.906zM216.628 735.608v0c-8.221-10.56-11.743-24.072-9.387-39.342 34.637-220.209 66.937-368.775 96.886-445.708 11.743-28.184 25.244-41.686 41.1-40.514 24.664 1.758 54.027 35.819 88.671 102.183 18.201 37.584 46.392 93.955 84.563 169.114 31.707-110.984 75.159-194.364 129.771-250.156 15.271-15.857 31.121-22.899 46.392-21.727 13.513 1.172 24.072 8.221 31.128 21.141 5.871 11.158 8.221 24.085 7.043 38.756-3.52 53.441 1.765 128.020 16.443 223.74 15.264 98.644 34.058 169.7 56.964 211.986 4.698 8.807 6.457 17.615 5.871 28.188-1.172 13.513-7.049 24.664-18.201 33.472s-23.485 12.92-36.998 11.744c-17.029-1.179-29.955-9.4-38.756-25.843-36.41-66.351-62.248-173.819-77.519-322.964-22.313 56.371-41.1 122.729-55.785 200.827-6.463 34.644-22.313 51.082-48.15 49.322-17.615-1.172-32.3-12.92-44.044-35.23l-128.599-244.875c-21.141 85.148-41.1 189.089-59.305 311.818-4.111 30.541-21.141 44.633-51.087 42.273-16.443-1.172-28.777-7.043-36.998-18.201z" />
<glyph unicode="&#xe905;" glyph-name="gravityforms" horiz-adv-x="931" d="M824.058 711.596v0l-290.963 167.941c-37.041 21.454-97.881 21.454-134.922 0l-290.963-167.941c-37.041-21.454-67.545-74.081-67.545-116.821v-336.049c0-42.907 30.337-95.368 67.545-116.821l290.963-167.941c37.041-21.454 97.881-21.454 134.922 0l290.963 167.773c37.208 21.454 67.545 74.081 67.545 116.821v336.049c0 42.907-30.337 95.535-67.545 116.988zM675.727 588.572v-99.39h-268.169v99.39h268.169zM277.331 269.286c-27.487 0-49.612 22.292-49.612 49.612 0 27.487 22.292 49.612 49.612 49.612s49.612-22.292 49.612-49.612c0-27.32-22.292-49.612-49.612-49.612zM277.331 489.186c-27.487 0-49.612 22.292-49.612 49.612s22.292 49.612 49.612 49.612c27.32 0 49.612-22.292 49.612-49.612s-22.292-49.612-49.612-49.612zM407.558 269.286v99.39h268.169v-99.39h-268.169z" />
<glyph unicode="&#xe906;" glyph-name="ultimate-member2" horiz-adv-x="1714" d="M678.728 453.387c0 0 195.522-151.859 359.257 11.876 0 0 35.181 56.52 139.548-136.579s-50.174-334.017-313.234-334.017c-263.061 0-449.522 104.733-328.078 348.867 0 0 80.24 172.583 142.517 109.859zM852.424 836.395c112.325 0 203.385-91.059 203.385-203.385s-91.059-203.385-203.385-203.385c-112.325 0-203.385 91.059-203.385 203.385s91.059 203.385 203.385 203.385zM1243.217 202.687c21.323-2.116 43.659-3.156 66.763-3.156 205.075 0 325.548 110.101 244.192 260.97s-108.783 106.709-108.783 106.709c-127.64-127.926-280.071-9.277-280.071-9.277-31.070 31.359-67.866-12.557-90.344-48.256 22.050-2.091 63.661-30.103 133.121-158.401 29.088-53.737 39.904-103.796 35.127-148.588v0zM641.32 500.517c-64.287 104.205-86.661 68.175-86.661 68.175-127.64-127.926-280.071-9.277-280.071-9.277-48.548 49.005-111.105-85.833-111.105-85.833-94.67-190.748 50.683-272.567 255.768-272.567 14.318 0 28.218 0.536 41.672 1.59-2.894 46.782 9.761 101.602 41.337 164.987 0 0 73.965 158.828 139.052 132.929v0zM1300.717 857.181c87.561 0 158.552-71.145 158.552-158.899s-70.983-158.899-158.552-158.899c-87.561 0-158.552 71.145-158.552 158.899s70.983 158.899 158.552 158.899zM409.997 858.667c87.561 0 158.552-71.145 158.552-158.899s-70.983-158.899-158.552-158.899c-87.561 0-158.552 71.145-158.552 158.899s70.983 158.899 158.552 158.899z" />
<glyph unicode="&#xe907;" glyph-name="ultimate-member" horiz-adv-x="1285" d="M295.17 453.16c0 0 188.607-146.485 346.552 11.46 0 0 33.933 54.521 134.605-131.74s-48.394-322.206-302.151-322.206c-253.757 0-433.612 101.021-316.476 336.518 0 0 77.402 166.476 137.47 105.967zM462.716 822.617c108.346 0 196.183-87.837 196.183-196.184s-87.837-196.184-196.183-196.184c-108.346 0-196.184 87.837-196.184 196.184s87.837 196.184 196.184 196.184zM839.689 211.324c20.565-2.042 42.118-3.041 64.402-3.041 197.826 0 314.034 106.21 235.55 251.741s-104.938 102.934-104.938 102.934c-123.124-123.401-270.163-8.952-270.163-8.952-29.971 30.249-65.467-12.117-87.146-46.555 21.267-2.017 61.409-29.038 128.412-152.798 28.058-51.833 38.495-100.126 33.88-143.336v0zM895.152 842.667c84.471 0 152.943-68.623 152.943-153.278s-68.472-153.278-152.943-153.278c-84.471 0-152.943 68.623-152.943 153.278s68.472 153.278 152.943 153.278z" />
<glyph unicode="&#xe908;" glyph-name="events-calendar" d="M768 733.867h153.6v-716.8h-819.2v716.8h153.6v51.2c0 42.496 34.304 76.8 76.8 76.8s76.8-34.304 76.8-76.8v-51.2h204.8v51.2c0 42.496 34.304 76.8 76.8 76.8s76.8-34.304 76.8-76.8v-51.2zM307.2 785.067v-128c0-14.336 11.264-25.6 25.6-25.6s25.6 11.264 25.6 25.6v128c0 14.336-11.264 25.6-25.6 25.6s-25.6-11.264-25.6-25.6zM665.6 785.067v-128c0-14.336 11.264-25.6 25.6-25.6s25.6 11.264 25.6 25.6v128c0 14.336-11.264 25.6-25.6 25.6s-25.6-11.264-25.6-25.6zM870.4 68.267v460.8h-716.8v-460.8h716.8zM358.4 119.467v358.4h-102.4v-358.4h102.4zM563.2 119.467v358.4h-102.4v-358.4h102.4zM768 119.467v358.4h-102.4v-358.4h102.4z" />
<glyph unicode="&#xe909;" glyph-name="mmp" d="M541.067 187.249c-7.924 10.967-12.644 24.4-12.786 38.928-0.004 0.226-0.006 0.453-0.006 0.679v234.304c0 54.671-44.258 98.929-98.929 98.929s-98.929-44.258-98.929-98.929v-235.606c0-26.036-14.32-48.164-35.148-59.88-10.414-5.209-20.827-7.809-32.54-7.809-37.749 0-67.689 29.94-67.689 67.689v235.606c0 54.671-44.258 98.929-98.929 98.929-0.221 0-0.435 0.002-0.657 0.006-0.216-0.004-0.432-0.006-0.648-0.006-37.382 0-67.689 30.307-67.689 67.689 0 37.128 29.894 67.278 66.928 67.681 0.253 0.005 0.507 0.006 0.761 0.006 66.384 0 124.961-27.336 167.917-70.289 42.958 42.958 101.533 70.289 166.616 70.289s123.663-27.336 166.616-70.289c42.958 42.958 101.533 70.289 166.616 70.289 128.867 0 234.304-105.438 234.304-234.304v-234.304c0-37.749-29.94-67.689-67.689-67.689s-67.689 29.94-67.689 67.689v234.304c0 54.671-44.258 98.929-98.929 98.929s-98.929-44.258-98.929-98.929v-234.304c0-37.749-31.242-67.689-67.689-67.689-19.524 0-36.446 7.809-48.164 19.524-2.426 2.69-4.681 5.55-6.735 8.557z" />
<glyph unicode="&#xe911;" glyph-name="buddypress" d="M1023.42 427.090v0c0 282.475-228.992 511.465-511.465 511.465-282.475 0-511.467-228.99-511.467-511.465 0-282.473 228.992-511.467 511.467-511.467 282.473 0 511.465 228.994 511.465 511.467zM950.491 427.090c0-242.197-196.343-438.535-438.535-438.535-242.196 0-438.533 196.338-438.533 438.535 0 242.196 196.338 438.533 438.533 438.533 242.192 0 438.535-196.338 438.535-438.533v0zM636.881 479c66.742 15.031 116.593 74.669 116.593 145.95 0 82.627-66.98 149.608-149.607 149.608-29.082 0-56.227-8.298-79.194-22.656 80.043-19.065 139.567-91.043 139.567-176.923 0-35.23-10.018-68.121-27.36-95.979v0 0zM483.685 319.248l108.466 106.593c0 0 198.229 0 173.918-254.331h-566.634c0 0-39.274 243.111 175.787 254.331 78.542-78.542 108.464-106.593 108.464-106.593v0zM673.405 437.062l26.184 29.922c0 0 164.625 26.18 164.562-215.061-35.529-1.869-65.452 0-65.452 0s-5.607 149.605-125.294 185.139v0zM631.984 573.578c0-82.625-66.98-149.605-149.607-149.605-82.625 0-149.605 66.98-149.605 149.605s66.98 149.607 149.605 149.607c82.627 0 149.607-66.982 149.607-149.607v0z" />
<glyph unicode="&#xe913;" glyph-name="visit_tracking" d="M804 260.667c22-10 38-32 38-58v-8l-32-226c-4-32-30-54-62-54h-290c-18 0-32 6-44 18l-212 212 34 34c8 8 20 14 34 14 4 0 6-2 10-2l146-30v458c0 36 28 64 64 64s64-28 64-64v-256h34c8 0 14-2 22-4zM384 458.667c-52 34-86 94-86 160 0 106 86 192 192 192s192-86 192-192c0-66-32-126-84-160v160c0 58-50 106-108 106s-106-48-106-106v-160z" />
<glyph unicode="&#xe922;" glyph-name="activity" d="M982 596.667c0-46-40-84-86-84-8 0-16 0-22 2l-152-152c2-6 4-14 4-22 0-46-40-84-86-84s-86 38-86 84c0 8 2 16 4 22l-110 110c-6-2-14-4-22-4s-16 2-22 4l-194-194c2-6 4-14 4-22 0-46-40-86-86-86s-86 40-86 86 40 84 86 84c8 0 16 0 22-2l194 194c-2 6-2 14-2 22 0 46 38 86 84 86s86-40 86-86c0-8 0-16-2-22l108-108c6 2 14 2 22 2s16 0 22-2l152 150c-2 6-4 14-4 22 0 46 40 86 86 86s86-40 86-86z" />
</font>
</defs>
</svg>
